» » Ed Motta - AOR

Ed Motta - AOR mp3 herunterladen

  • Darsteller: Ed Motta
  • Album: AOR
  • Etikett: Membran
  • Katalog #: 233893
  • MP3: 1584 mb | FLAC: 2020 mb
  • Freigegeben: 2014
  • Land: Europe
  • Stil: Jazz-Funk, Soul-Jazz, Smooth Jazz
  • Bewertung: 4.8/5
  • Abstimmungen: 663
  • Kategorie: Jazz / Lateinamerikanische Musik / Soulmusik
Ed Motta - AOR mp3 herunterladen

Trackliste

11978 ( Leave The Radio On)4:38
219784:38
3Flores Da Vida Real5:56
4Dried Flowers4:40
5Simple Guy3:34
6Lost In The Night3:55
7Latido4:42
8Dondi5:28
9Smile4:20
10AOR0:22
11A Engrenagem5:59
12Farmers Wife5:59
13S.O.S. Amor3:34
14Playthings Of Luv5:56
15Ondas Sonoras5:28
16Marta4:20
17Epsódio3:55

Versionen

CategoryArtistTitle (Format)LabelCategoryCountryYear
0001Ed Motta AOR ‎(CD, Album)Dwitza Music0001Brazil2013
233739Ed Motta AOR ‎(CD, Album)Membran233739Europe2013
233893Ed Motta AOR ‎(CD, Album, Dlx, Promo, Car)Membran233893Europe2014
233753Ed Motta AOR ‎(LP, Album, Ltd, Gat)Membran233753Europe2013
LAB 10160-4Ed Motta AOR ‎(LP, Album, Whi)Dwitza MusicLAB 10160-4Brazil2013

Hinweise

Deluxe version. Includes both the english version and the brazilian version

Barcodes

  • Barcode: 8515033893

Video

Album

AOR - Ed Motta. Лента с персональными рекомендациями и музыкальными новинками, радио, подборки на любой вкус, удобное управление своей коллекцией. Aor - Ed Motta. For Motta it has always been more complex, deeper, and wider it was American music, regardless of popular genre, that displayed a specific standard in writing, playing, and production. Though this adheres closely to Steely Dan's Becker and Fagen, one can also hear Maurice White, Rene & Angela, Gino Vannelli, and Jay Graydon in both charts and mix. Ed Motta - AOR 2013. To favorites 0 Download album. Listen album. Jazz Soul Funk, Soul. Ed Motta. AOR English Version. Songs in album Ed Motta - AOR 2013. Ed Motta - Playthings Of Luv. Ed Motta - Simple Guy. Ed Motta - Lost In The Night. Ed Motta - Dondi. Ed Motta - Smile. Ed Motta - 1978 Leave The Radio On. Ed Motta - Dried Flowers. Ed Motta - AOR. Ed Motta - Farmer's Wife. Listen free to Ed Motta AOR Playthings of Luv, Simple Guy and more. 9 tracks 38:55. ED MOTTA - Aor. Jazz music community with review and forums. 0 rating 0 review. Album 2013. Filed under RnB By ED MOTTA. 1 Flores Da Vida Real 2 Amor 3 Episódio 4 Ondas Sonoras 5 Marta 6 1978 7 Latido 8 Aor 9 A Engrenagem. About this release. Dwitza Music 0001 Brazil. Thanks to snobb for the addition. Buy ED MOTTA - AOR music. Eduardo Ed Motta Portuguese pronunciation: born August 17, 1971 is a Brazilian MPB, rock, soul, funk and jazz musician. He is the nephew of late singer-songwriter Tim Maia. Son of Luzia Motta, sister of Tim Maia and Antonio Motta, from an early age listened to disco, soul and funk, later leaning to rock, of which he became profoundly knowledgeable at the time. His musical career started as vocalist of the hard rock band Kabbalah, After hearing Jeff Beck's album Blow by Blow, he. from the album AOR 2013. Músicamusic: Ed Motta, Letralyrics: Dante Spinetta. Aor, 2013. Simple Guy, 03:34. Lost in the Night, 03:55. Dondi, 05:28. 1978 Leave the Radio On, 04:38. Dried Flowers, 04:40. 180 gram, Import. Ed Motta Format: Vinyl. AOR Brazilian Portuguese Version. Please retry. This album is an expression of love for the AOR genre, and the music is closely related to artists like Gino Vanelli, Al Jarreau and especially Steely Dan. If you are into any of these artists you will most likely love AOR The record sounds absolutely fantastic, and so are the compositions and the musicians who perform on this album. Perfect summer album

Delaath
foobar2000 1.3.17 / Dynamic Range Meter 1.1.1
log date: 2018-07-13 17:34:02

--------------------------------------------------------------------------------
Analyzed: Ed Motta / AOR (Deluxe Version)
--------------------------------------------------------------------------------

DR Peak RMS Duration Track
--------------------------------------------------------------------------------
DR8 -0.20 dB -10.04 dB 5:57 01-Playthings of Luv
DR8 -0.20 dB -9.74 dB 3:34 02-Simple Guy
DR8 -0.20 dB -10.21 dB 3:55 03-Lost in the Night
DR8 -0.30 dB -9.85 dB 5:29 04-Dondi
DR9 -0.20 dB -10.76 dB 4:20 05-Smile
DR8 -0.20 dB -9.50 dB 4:39 06-1978 (Leave the Radio On)
DR8 -0.20 dB -9.56 dB 4:41 07-Dried Flowers
DR9 -0.20 dB -10.86 dB 0:23 08-Aor
DR8 -0.30 dB -10.12 dB 6:01 09-Farmer's Wife
DR8 -0.30 dB -10.09 dB 5:57 10-Flores da Vida Real
DR8 -0.30 dB -9.85 dB 3:34 11-S.O.S. Amor
DR9 -0.30 dB -10.47 dB 3:55 12-Episódio
DR8 -0.20 dB -9.81 dB 5:29 13-Ondas Sonoras
DR9 -0.20 dB -10.76 dB 4:20 14-Marta
DR8 -0.30 dB -9.58 dB 4:39 15-1978
DR8 -0.30 dB -9.61 dB 4:42 16-Latido
DR9 -0.30 dB -10.97 dB 0:23 17-Aor
DR8 -0.20 dB -9.90 dB 6:02 18-A Engrenagem
--------------------------------------------------------------------------------

Number of tracks: 18
Official DR value: DR8

Samplerate: 44100 Hz
Channels: 2
Bits per sample: 16
Bitrate: 653 kbps
Codec: ALAC
================================================================================

Bezogen auf das Ed Motta - AOR: